Street Guardian SG9665XS

Тема в разделе "Street Guardian", создана пользователем alexsoll, 15 окт 2016.

  1. Street Guardian SG9665XS

    [​IMG]



    Processor: Novatek NT96650
    Lens: 7 Element all Glass lens, 120° horizontal viewing angle
    CMOS sensor: Aptina AR0330
    Video resolution: Full HD 1080P at 30fps @ 15Mbit/sec
    Video format: H.264 compression, MOV format
    LCD display: 2.0-inch HD TFT screen
    Microphone: Built-in, on/off menu selectable
    Speaker: Built in
    Storage media: MicroSD card, 32GB Class10 recommended, 128GB maximum*
    Gapless recording: Supported
    Recording cycle: Menu selectable 1 min/3 min/5 min
    Date stamped video: Supported
    Motion detection: Supported
    Soft shutdown: Supported, last file save and soft shutdown
    Screen saver: Supported, menu selectable 10sec, 30sec, 60sec, off
    Built-in G-sensor: Yes, with adjustable sensitivity
    Incident file protect: Automatic by G-Sensor/Manual emergency by button
    Exposure compensation: Automatic
    White balance: Auto
    Language: English/Spanish/Russian/Portuguese/German/Italian/Japanese/French/Simplified Chinese/Traditional Chinese
    Power supply: Fail-safe Super Capacitor
    RTC: (Real Time Clock) Supported
    Direct 12v~24v input
    Unit Net Weight: 65g
    Unit size: 50 x 76 x 32mm ( with lens )
    General
    Complete name : G:\DCIM\100MEDIA\2016_1014_192123_078.MOV
    Format : MPEG-4
    Format profile : QuickTime
    Codec ID : qt 0000.00 (qt )
    File size : 326 MiB
    Duration : 3 min
    Overall bit rate : 15.1 Mb/s
    Movie_More : CarDV-TURNKEY
    Encoded date : UTC 2016-10-14 19:24:22
    Tagged date : UTC 2016-10-14 19:24:22
    Origin : NVT-IM

    Video
    ID : 1
    Format : AVC
    Format/Info : Advanced Video Codec
    Format profile : High@L4.1
    Format settings, CABAC : Yes
    Format settings, ReFrames : 1 frame
    Format settings, GOP : M=1, N=15
    Codec ID : avc1
    Codec ID/Info : Advanced Video Coding
    Duration : 3 min
    Bit rate : 13.9 Mb/s
    Width : 1 920 pixels
    Height : 1 080 pixels
    Display aspect ratio : 16:9
    Frame rate mode : Constant
    Frame rate : 30.000 FPS
    Color space : YUV
    Chroma subsampling : 4:2:0
    Bit depth : 8 bits
    Scan type : Progressive
    Bits/(Pixel*Frame) : 0.224
    Stream size : 300 MiB (92%)
    Language : English
    Encoded date : UTC 2016-10-14 19:24:22
    Tagged date : UTC 2016-10-14 19:24:22

    Audio
    ID : 2
    Format : PCM
    Format settings, Endianness : Little
    Format settings, Sign : Signed
    Codec ID : sowt
    Duration : 3 min
    Bit rate mode : Constant
    Bit rate : 512 kb/s
    Channel(s) : 1 channel
    Sampling rate : 32.0 kHz
    Bit depth : 16 bits
    Stream size : 11.0 MiB (3%)
    Language : English
    Encoded date : UTC 2016-10-14 19:24:22
    Tagged date : UTC 2016-10-14 19:24:22
    ориг. - https://yadi.sk/d/5U3b6TxewnxEK


     
    • Полезно! Полезно! x 2
    • Спасибо! Спасибо! x 1
  2.  
    • Полезно! Полезно! x 2
  3.  
    • Нравится Нравится x 1
    • Полезно! Полезно! x 1
  4. firmware_1.00.08



     
    • Нравится Нравится x 1
    • Полезно! Полезно! x 1

Поделиться этой страницей

Яндекс.Метрика Рейтинг@Mail.ru