Necker S1

Тема в разделе "Necker", создана пользователем Дмитрий, 18 мар 2013.

  1. Автомобильный видеорегистратор Necker S1
    Производство: Тайвань
    [​IMG]
    Посмотреть видеорегистратор в 3D съемке.

    Технические характеристики:
    ЖК-дисплей: 2,4” с автоматически переворотным эффектом, и выключением экрана через меню.
    Экстренная запись: Кнопка для сохранения видео в нужный вам момент.
    Матрица: FDR image sensor.
    G-сенсор: При ударе (столкновении) автоматически сохраняет видео, с функцией отключения.
    Формат записи видео: H264@MOV file
    Угол обзора: 120°
    Объектив: 5 Mega pixels
    Выход: AV / USB 2.0
    Аудио: Микрофон с функцией отключения/ встроенный динамик.
    Разрешение видео: 1920*1080 30 fps / 1280*720 60 fps
    Слот для карты памяти: Micro SD (от 8 ГБ до 32 ГБ) не ниже шестого класса.
    TV выход: NTSC / PAL
    Поддержка языков: русский / английский / китайский / японский /
    Питание: USB / автомобильный адаптер
    Габариты: 78 мм. х 60 мм. х 38,5 мм.
    Вес: 78 гр.
    Комплектация: USB- кабель, крепление, кабель питания в машинный прикуриватель, инструкция, диск с программным обеспечением.


    Преимущества :
    - Отличное качество видео. (Днем и ночью)
    - Инновационная технология FDR для улучшения съемки в ночное время.
    - Широкий угол 120 градусов в формате FULL HD.
    - H.264 1920x1080@30к/с, 1280x720@ 60к/с
    - Датчик удара G-SENSOR
    - Экран 2.4 дюйма с автоматическим переворотным эффектом.
    - Компактный размер, лёгкий вес.
    - Надежная сборка, качественные материалы.
    - Доступная цена.


    Комплектация :
    - Видеорегистратор NeckerS1 – 1 шт.
    - Кронштейн автомобильный – 1 шт.
    - Кабель питания – 1 шт.
    - USB провод - 1 шт.
    - Диск с программным обеспечением – 1 шт.
    - Инструкция - 1 шт.

    Видео снятые на Necker S1.
    Ночь:


    День:


    Гарантийное обслуживание в течение 1-го года.
     
  2. Выложите другой ночной ролик, не из пробки, а то не понятны возможности регистратора.
     
    • Согласен Согласен x 1
  3. Недавно себе приобрел данную модель , качеством съемки очень доволен , особенно в ночное время .
    И да можно было бы другой ночной ролик выложить , а то не совсем понятно , так как на деле куда лучше выходит .
     
  4. Подскажите время автономной работы у регистратора. И у necker 2 модели. Eще есть m898gf . Чем они отличаются. Какой лучше?
     
  5. Видеорегистраторы Necker S1, установленные на автомобили участников трофи-рейда, приняли участие в экстрим-тесте по бездорожью. На тест устройства предоставила компания http://necker-russia.com/, @Molotok оказал непосредственное содействие и поддержку.
    42 in a.jpg in 52 a.jpg

    Дополнительно о технологии FDR, применяемой в Necker S1, в обзоре - http://auto-dvrs.ru/reviews/necker-s1-review/
    Настройки установили по дефолту, некоторые экипажи установили цикл записи не в 200, а в 400 МБ (установка в минутах не предусмотрена), ролики получились длительностью около 6,5 мин каждый, на micro-SDHC карту Transcend обьемом 32 ГБ поместилось 70 файлов, с общим временем записи около 7,5 часов.
    Из-за отсутствия внутреннего аккумулятора на большинстве ВР на видео штамп даты стоит некорректный (сбрасывается при отключении питания), но есть и преимущества - ВР более легкий и не так подвержен вибрациям, не страшны высокие температуры.
    Устанавливали ВР по возможности в зоне работы щеток стеклоочистителя, поэтому на некоторых ВР сьемка произведена с более низкой точки, чем при обычной установке.
    Видео:
    день, солнечно, деревья

    оригинал http://yadi.sk/d/6ex7b4-7Rab6z

    сумерки, без освещения

    оригинал http://yadi.sk/d/O7z2PoZ_RUz5N

    ночь, без освещения, лес

    оригинал http://yadi.sk/d/mKCEWR0cRambw

    Параметры видео/аудио (MediaInfo) Necker S1:
    Общее
    Полное имя : F:\DCIM\100MEDIA\07012203_0047.MOV
    Формат : MPEG-4
    Профиль формата : QuickTime
    Идентификатор кодека : qt
    Размер файла : 401 Мбайт
    Продолжительность : 6 м. 32 с.
    Режим общего битрейта : Постоянный
    Общий поток : 8562 Кбит/сек
    AMBA : ***

    Видео
    Формат : AVC
    Формат/Информация : Advanced Video Codec
    Профиль формата : Main@L4.2
    Вид битрейта : Постоянный
    Битрейт : 8490 Кбит/сек
    Номинальный битрейт : 42,5 Мбит/сек
    Ширина : 1920 пикселей
    Высота : 1080 пикселей
    Соотношение сторон : 16:9
    Режим частоты кадров : Постоянный
    Частота кадров : 29,970 кадров/сек
    Цветовое пространство : YUV
    Субдискретизация насыщенности : 4:2:0
    Битовая глубина : 8 бит
    Тип развёртки : Прогрессивная
    Бит/(Пиксели*Кадры) : 0.137
    Размер потока : 398 Мбайт (99%)
    Заголовок : Ambarella AVC / Ambarella AVC
    Язык : English

    Аудио
    Формат : AAC
    Формат/Информация : Advanced Audio Codec
    Профиль формата : LC
    Идентификатор кодека : 40
    Вид битрейта : Постоянный
    Битрейт : 64,0 Кбит/сек
    Каналы : 1 канал
    Расположение каналов : Front: C
    Частота : 48,0 КГц
    Метод сжатия : С потерями
    Размер потока : 3,00 Мбайт (1%)
    Заголовок : Ambarella AAC / Ambarella AAC
    Язык : English

    Текст
    Формат : Timed Text
    Идентификатор кодека : text
    Продолжительность : 6 м. 32 с.
    Вид битрейта : Постоянный
    Битрейт : 816 бит/сек
    Размер потока : 39,1 Кбайт (0%)
    Размер потока оригинала : 39,1 Кбайт (0%)
    Заголовок : Ambarella EXT / Ambarella EXT
    Язык : English


    Основные материалы по экстрим-тесту здесь: http://videoregforum.ru/threads/ehkstrim-test-videoregistratorov-24-chasa-bezdorozhja.1220/
     
    #5 LEONавто, 29 май 2014
    Последнее редактирование: 5 июн 2014
  6. Долгое время был читателем, выбрал Necker S1 Цена- качество для меня оптимально.
    8 месяцев только радовал качественной и неприхотливой работой. Затем потух экран.
    Связался с дилером ( Сергей спб) И вопрос замены был решен за один день.
    Тех. поддержка на высоте, что очень радует.
     
    • Нравится Нравится x 1

Поделиться этой страницей

Яндекс.Метрика Рейтинг@Mail.ru